» » Island Band - I'm Your Captain

Island Band - I'm Your Captain flac

  • Interprète: Island Band
  • Titre: I'm Your Captain
  • Taille FLAC: 1587 mb
  • Pays: Japan
  • Date de publication: 25 Oct 2000
  • # Catalogue: COHI-1006
  • Label: Cool Hawaii
  • Classement: 4.0 of 5
  • Genre: Monde
Island Band - I'm Your Captain flac

Tracklist

1When You're Around3:55
2Let's Escape4:51
3I'm Your Captain (Closer To Home)7:56
4What Love Can Do (Instrumental Mix)3:38
5What Love Can Do3:37
6How Can I Make You See3:58
7How Can I Make You See? (Tropical Dub Mix)4:40
8Pushin' Me3:15
9Pacific Moonrise1:29
10The Fool (Love You With All My Heart) (Extended Dance Mix)4:36
11 Bonus Tracks
12The Fool3:22
13Living Dream3:45

Versions

CategoryArtistTitle (Format)LabelCategoryCountryYear
SWLP-8052Island Band I'm Your Captain ‎(LP)Sea West RecordsSWLP-8052US1982

Remarques

The last 3 songs are exclusive to this Japanese re-release.

Entreprises

  • Phonographic Copyright (p) – Sea-West Productions/Hawaii
  • Copyright (c) – Sea-West Productions/Hawaii
  • Manufactured By – Cool Sound Inc.

Video

Album

Songs in album Island Band - I'm Your Captain japanishe release 1982. Island Band - Pushin' Me. Island Band - How Can I Make You See 122. Island Band - I'm Your Captain Closer To Home. I'm Your Captain Closer to Home is a 1970 song written by American musician Mark Farner and recorded by Grand Funk Railroad as the closing track to their album Closer to Home. Ten minutes in duration, it is the band's longest studio recording. One of the group's best-known songs, it is composed as two distinct but closely related movements. Its title has been rendered in various ways across many different Grand Funk albums, including I'm Your Captain, I'm Your CaptainCloser to Home, Closer. Listen free to Island Band I'm Your Captain Pushin' Me, What Love Can Do and more. 7 tracks . Album: I'm Your Captain 1982. Island Band - Let's escape - Продолжительность: 5:16 syota shimada Recommended for you. Go For It- I Refuse Westcoast - Pop - Aor. Island Band. I'm Your Captain. Your Rating. Cool Sound Records 1006. Текст песни: Everybody, Listen to me, And return me, my ship. Im your captain, Im your 's Island by Eden Ahbez, released 10 December 2018 1. Eden's Island 2. The Wanderer 3. Myna Bird 4. Eden's Cove 5. Tradewind 6. Full Moon 7. Tobago Bonus 8. Mongoose 9. Market Place 10. Banana Boy 11. The Old Boat 12. Island Girl 13. Get all 12 Captain High Records releases available on Bandcamp and save 35. Includes unlimited streaming via the free Bandcamp app, plus high-quality downloads of Rains In The Tropics, Sondi, Les Baxter's Jungle Jazz, Katanga. RecordVinyl Digital Album. Includes unlimited streaming of Eden's Island via the free Bandcamp app, plus high-quality download in MP3, FLAC and more. Sold Out. Im your captain, Im your captain. Im your captain, Im your captain, Though Im feeling mighty sick. Ive been lost now, Days uncounted, And its months since, Ive seen home. Can you hear me, can you hear me, Or am I all alone . Add album to Cart. Pushin' Me. How Can I Make You See. I'm Your Captain Closer To Home. When You're Around. The Island Band. 24 March . Hubromusic is running a 20 off campaign on bandcamp Go support your favorite Hubro artists 3. Lars Myrvoll har med sitt The Island Band laga spennende musikk i de fleste Myrvo. På den ikke helt øde øya. 3 March 2016 . Great review of The Island Band's album Like Swimming in DN NO today. 7 July 2015

Commentaires (1)

Rainbearer
foobar2000 1.4.4 / Dynamic Range Meter 1.1.1
log date: 2020-01-08 19:37:02

--------------------------------------------------------------------------------
Analyzed: Island Band / I`m Your Captain [JP 1982/2000 CD]
--------------------------------------------------------------------------------

DR Peak RMS Duration Track
--------------------------------------------------------------------------------
DR9 -1.22 dB -12.06 dB 3:15 01-Pushin' Me
DR10 -1.38 dB -12.38 dB 3:58 02-How Can I Make You See ?
DR9 -1.39 dB -12.02 dB 3:37 03-What Love Can Do
DR9 -1.39 dB -12.61 dB 7:56 04-I`m Your Captain (Closer To Home)
DR10 -1.23 dB -12.14 dB 3:55 05-When Your Around
DR9 -1.43 dB -11.92 dB 3:22 06-The Fool (Love You With All My Heart)
DR14 -1.74 dB -19.21 dB 1:29 07-Pacific Moonrise
DR10 -1.45 dB -13.17 dB 3:45 08-Living Dream
DR9 -1.42 dB -12.36 dB 4:51 09-Let`s Escape
DR10 -0.78 dB -12.97 dB 4:40 10-How Can I Make You See ? (Tropical Dub Mix)
DR10 -1.32 dB -12.69 dB 3:38 11-What Love Can Do ? (Instrumental Mix)
DR9 -1.28 dB -12.27 dB 4:36 12-The Fool (Love You With All My Heart) (Extended Dance Mix)
--------------------------------------------------------------------------------

Number of tracks: 12
Official DR value: DR10

Samplerate: 44100 Hz
Channels: 2
Bits per sample: 16
Bitrate: 933 kbps
Codec: ALAC
================================================================================

En rapport avec les Island Band - I'm Your Captain: